#TITLE:Prophetess;
#SUBTITLE:;
#ARTIST:STM;
#TITLETRANSLIT:;
#SUBTITLETRANSLIT:;
#ARTISTTRANSLIT:;
#CREDIT:;
#BANNER:prophetess-bn.png;
#BACKGROUND:prophetess-bg.png;
#LYRICSPATH:;
#CDTITLE:!mwerpvscetaka.png;
#MUSIC:prophetess.mp3;
#OFFSET:-0.080;
#SAMPLESTART:40.906;
#SAMPLELENGTH:11.960;
#SELECTABLE:YES;
#BPMS:0.000=200.000,265.000=180.000,265.500=160.000,266.000=140.000,266.500=120.000,267.000=100.000,269.250=200.000;
#STOPS:;
#BGCHANGES:;
// cache tags:
#FIRSTBEAT:0.000;
#LASTBEAT:334.250;
#SONGFILENAME:Songs/nhac/Prophetess - cetaka/prophetess.sm;
#HASMUSIC:1;
#HASBANNER:1;
#MUSICLENGTH:99.821;
// end cache tags

//---------------dance-single - ----------------
#NOTES:
     dance-single:
     :
     Challenge:
     13:
     1.000,1.000,1.000,0.371,0.972,778.000,377.000,37.000,61.000,0.000:
2002
3003
0000
0000
0100
0000
0000
0000
0010
0000
0000
0000
0002
0000
0003
0000
,
2010
3000
0000
0000
0100
0000
0000
0000
2020
0030
0000
3000
0100
0000
0000
0000
,
2020
3000
0030
0000
0201
0300
1000
0000
0001
0000
1000
0000
0201
0000
0300
0000
,
1000
0100
1000
2002
,
0000
0000
0000
0000
,
0000
0000
0000
0000
0000
0000
0000
0000
3003
0000
0000
0000
0011
1100
0011
0000
,
1002
0003
0010
0000
1000
0000
0101
0000
1000
0000
0010
0000
1001
0010
0100
0000
,
0101
0000
0010
0000
0100
0000
1010
0000
0100
0000
0010
0000
1001
0100
0010
0000
,
1001
0100
0010
0100
0010
0000
0100
0000
1010
0100
0001
0000
1010
0000
0110
1001
,
0110
0000
0100
0000
1020
0030
0001
0000
1100
0000
0001
0000
0010
0100
0010
0000
,
1001
0000
0100
0000
0010
0000
1001
0000
0010
0000
0100
0000
0011
0100
0010
0000
,
0011
0100
1000
0001
1100
0010
1000
0000
0101
0010
0001
0000
1010
0101
1010
0000
,
0120
0030
0100
0000
0011
0100
1000
0000
1100
0000
0001
0000
0010
0100
0010
0000
,
1001
0000
0010
0000
0001
0000
1100
0000
0010
0000
0001
0000
1100
0010
0100
0000
,
1001
0100
0010
0001
1000
0000
0100
0000
1010
0100
0010
0000
0101
0000
0110
1001
,
0110
0000
0010
0000
0102
0003
0010
0000
1100
0000
0010
0000
0001
0010
0001
0000
,
1010
0000
0001
0000
0100
0000
1010
0000
0100
0000
0001
0000
1010
0100
0010
0000
,
1100
0010
0101
1010
0101
0000
1000
0100
0001
0000
0001
0010
1000
0000
0100
0010
,
1002
0003
1000
0010
0100
0000
0100
0010
0001
0000
1000
0000
0110
0001
0100
0000
,
0011
0000
1000
0001
1100
0000
0001
0010
0101
0000
0100
0010
1100
0000
0001
1000
,
0010
0000
0100
0000
1001
0000
0010
0100
0010
0100
1000
0000
0110
1000
0011
0100
,
1010
0000
0100
0010
1002
0003
0100
0010
0101
0000
1000
0000
0010
0100
0001
1000
,
0100
0000
0100
0010
0001
0000
0001
0010
1100
0000
0001
1000
0110
0000
1000
0100
,
0011
0000
0100
0000
1001
0100
0010
0000
1100
0010
0001
0000
0001
1000
0001
1000
,
0012
0003
0010
0100
1000
0000
0001
1000
0011
0000
1100
0000
0011
1000
0100
0000
,
0010
0000
1001
0100
0010
0000
0101
0010
0100
0000
1010
0000
0100
0000
1001
0100
,
0001
0000
0010
0000
0011
0100
1000
0000
0110
0001
1000
0000
1100
0010
0001
0010
,
0001
0000
0010
0100
1002
0003
0010
0100
1010
0000
0001
0000
1010
0100
0010
0000
,
1100
0000
0010
0100
0011
0000
1000
0010
0101
0000
1010
0100
0010
0000
1001
0010
,
0100
0000
0110
0000
1100
0010
0001
0000
0011
0100
1000
0000
1100
0010
1000
0100
,
1002
0003
0100
0000
0010
0000
0100
0000
1002
0003
0100
0000
0001
0000
1000
0000
,
0012
0003
1000
0000
0100
0000
0001
0000
0102
0003
0110
0000
0011
0100
1000
0000
,
0110
0000
1010
0000
1001
0100
0010
0000
1010
0000
0100
0000
0010
0000
0101
0000
,
0010
0000
0100
0000
1001
0010
0100
0000
0011
0100
1000
0100
1010
0000
0100
0000
,
1010
0001
0010
0000
0101
0000
1001
0110
1001
0000
0100
0000
1020
0130
0010
0000
,
1100
0000
0010
0000
1001
0100
0010
0000
1100
0000
0001
0000
0010
0000
1100
0000
,
0010
0000
0001
0000
1010
0100
0010
0000
1100
0010
0101
1010
0101
0000
1010
0100
,
1000
0000
1100
0010
0001
0000
1001
0010
0202
0303
1010
0100
1000
0100
0011
0000
,
0010
0000
0100
0000
1001
0010
0001
0000
1010
0000
0001
0000
0100
0000
1010
0000
,
0100
0000
0001
0000
1010
0100
0010
0000
1100
0010
0100
0010
1001
0000
0011
0000
,
1100
0010
0001
0000
0101
0000
0101
0010
1000
0000
0100
0000
1020
0130
0001
0000
,
0100
0000
0010
0000
0001
0010
0001
0000
0101
0000
1000
0000
0100
0000
1001
0000
,
0010
0000
0100
0000
0011
0100
0010
0000
0101
0010
1100
0011
1100
0000
0010
0100
,
1000
0000
1000
0100
0011
0000
1000
0010
0201
0300
0010
0100
1001
0000
0001
0100
,
1010
0000
0110
0000
1001
0010
0001
0000
0110
0000
1000
0100
1001
0000
1010
0100
,
0010
0000
0001
0010
0101
0000
1001
0100
0010
0000
0010
0000
0101
0010
1000
0000
,
1001
0100
0010
0000
0110
1000
0101
0010
1001
0000
0001
0010
2001
3000
0010
0100
,
1010
0000
0001
0000
1010
0100
0010
0000
1100
0000
0001
0000
0010
0000
0101
0010
,
0100
0000
1000
0100
0011
0000
1001
0010
0101
0010
1001
0110
1001
0000
0010
0000
,
1010
0001
0100
0000
0011
0100
0010
0001
2010
3000
0001
0010
1100
0000
0010
0100
,
1010
0000
0100
0000
1001
0010
0100
0000
1001
0000
0011
0100
1000
0000
0110
1000
,
0001
0000
0010
0000
1001
0000
0110
1000
0001
0000
1010
0000
1100
0010
0100
0000
,
0011
0100
1010
0000
0110
0000
0101
1010
0101
0000
1001
0010
0102
0003
0110
1000
,
0100
0000
1001
0000
0101
0010
1000
0000
0100
0000
0011
0100
1000
0000
1010
0100
,
0001
0000
1100
0000
1001
0110
1001
0110
1001
0000
0101
0000
0110
1000
0100
0000
,
1001
0010
0001
0000
1100
0000
0011
0100
2002
3003
0000
0000
1100
0000
0010
0000
,
1001
0110
0011
0001
1100
0010
1001
0110
,
1010
0001
1010
0001
1100
0110
0011
0001
,
1001
0010
0101
0110
1001
1000
0110
0001
,
1010
0101
1010
0100
0110
0010
1001
0011
,
0110
0010
0101
0010
1100
0110
0011
1000
,
0101
0010
0110
1001
1010
0100
1010
0010
,
0101
1010
0101
1000
0101
0010
1010
0011
,
1001
0100
1100
1010
0110
0101
0011
0000
,
1100
1010
1001
0101
0011
0000
1010
0101
,
1100
0110
0011
0000
1100
0011
1100
0110
,
0011
0000
0000
0000
1100
0000
0101
0000
1010
0000
0110
0000
1001
0000
0000
0010
,
0000
0100
0000
0000
0000
0010
0000
0000
0000
0100
0000
0000
0000
0000
0000
0000
1001
0000
0000
0000
0110
0000
0000
0000
0101
0000
0000
0000
1010
0000
0000
0000
,
1100
0000
0011
0000
0110
0001
1010
0000
0101
0000
1100
0000
0011
0100
1010
0000
,
0101
0010
1001
0000
1010
0000
1100
0010
1001
0010
0101
1000
0110
0000
0101
0000
,
1010
0100
0011
0000
1100
0000
0101
1010
0101
0000
0011
0000
0120
0030
1100
0000
,
1010
0100
0011
0000
1100
0000
0011
0100
1010
0000
0110
0000
0101
0000
1010
0000
,
0110
1000
0110
0000
1001
0000
0101
0000
1010
0000
0101
1010
0101
0000
1010
0100
,
1001
0100
1010
0000
0101
0000
1100
0010
2001
3000
1100
0000
1010
0000
1001
0000
,
0101
0000
0011
0000
1001
0010
0101
0000
0110
0000
1010
0000
1100
0010
1100
0000
,
0101
0000
0110
0000
1010
0100
1001
0100
0011
1000
0011
0100
1001
0000
1010
0000
,
0101
0010
1001
0000
1010
0000
0101
0010
1001
0000
1010
0000
0210
0301
0010
0000
,
1100
0010
0101
0000
0011
0100
0011
0000
1100
0000
0011
0000
1100
0000
0101
0010
,
1001
0000
0110
0000
0101
1010
0101
1010
0101
0000
1010
0000
0101
0000
1010
0001
,
0110
1000
0101
0000
0011
0000
0110
0000
1100
0000
0000
0000
0000
0000
0000
0000
,
0000
0000
0000
0000
,
0000
0000
0000
0000
0000
0000
0000
0000
0000
0000
0000
0000
0000
0000
0000
0000
0000
0000
0000
0000
0000
0000
0000
0000
0000
0000
M00M
0000
M00M
0000
M00M
0000
M0MM
0000
M00M
0M00
M00M
0000
0000
0000
0000
0000
0000
0000
0000
0000
0000
0000
0MM0
0000
0000
0000
M00M
0000
0000
0000
MMMM
0000
0000
0000
M00M
0000
0000
0000
,
M00M
0000
M000
M000
M000
MMMM
0000
0000
0MM0
M00M
MMMM
M00M
M00M
0000
0000
0000
,
0000
0000
0MM0
0MM0
0MM0
0000
MMMM
M00M
M00M
0MM0
0000
0000
0000
0000
0000
0000
;

//---------------dance-single - Copied from----------------
#NOTES:
     dance-single:
     Copied from:
     Medium:
     15:
     1.000,1.000,1.000,0.361,0.902,765.000,316.000,36.000,0.000,2.000:
0000
0000
0000
0000
,
0000
0000
0000
0000
,
0000
0000
0000
0000
,
0000
0000
0000
2002
,
0000
0000
0000
0000
,
0000
0000
0000
0000
0000
0000
0000
0000
3003
0000
0000
0000
1010
0100
0010
0000
,
1010
0000
0010
0000
0010
0000
0011
0000
0010
0000
0010
0000
1010
0100
0010
0000
,
0110
0000
0010
0000
0010
0000
1010
0000
0010
0000
0010
0000
1010
0100
0010
0000
,
1010
0100
0010
0100
0010
0000
0010
0000
1010
0100
0010
0000
0010
0000
0011
1000
,
0010
0000
0010
0000
2020
3030
0010
0000
1010
0000
0010
0000
0010
0100
0010
0000
,
1010
0000
0010
0000
0010
0000
0011
0000
0010
0000
0010
0000
0010
0100
0010
0000
,
0110
1000
0010
0001
1010
0100
0010
0000
0011
0100
0010
0000
1010
0100
0010
0100
,
0010
0000
0010
0000
0011
0100
0010
0000
1010
0000
0010
0000
0010
0100
0010
0000
,
1010
0000
0010
0000
0010
0000
1010
0000
0010
0000
0010
0000
0010
0100
0010
0000
,
0011
0100
0010
0100
1010
0000
0010
0000
1010
0100
0010
0000
1010
0000
0110
0001
,
0010
0000
0010
0000
0210
0300
0010
0000
0011
0000
0010
0000
0010
0100
0010
0000
,
0110
0000
0010
0000
0010
0000
1010
0000
0010
0000
0010
0000
0110
1000
0010
0000
,
1010
0100
1010
0001
1010
0000
0010
0100
0011
0000
0010
0001
1010
0000
0010
0100
,
2020
3030
1010
0100
0011
0000
0011
0100
1010
0000
0010
0000
0010
0100
0010
0000
,
0011
0000
0010
0001
0010
0000
0010
0100
0010
0000
0010
0100
0010
0000
0010
1000
,
0010
0000
0010
0000
1010
0000
0010
0100
0010
0100
0010
0000
0010
1000
0010
0001
,
0010
0000
0010
0100
2020
3030
0010
0100
0011
0000
0010
0000
0010
0100
0010
1000
,
0010
0000
0010
0100
0010
0000
0010
0100
1010
0000
0010
1000
0110
0000
0010
0100
,
0011
0000
0010
0000
1010
0100
0010
0000
1010
0100
0010
0000
0011
1000
0010
0100
,
0022
0033
0010
0100
0010
0000
0011
0100
0010
0000
1010
0000
0011
1000
0010
0000
,
0010
0000
0011
0100
0010
0000
0110
1000
0010
0000
1010
0000
0010
0000
1010
0100
,
0010
0000
0010
0000
0011
0100
0010
0000
0110
0001
0010
0000
1010
0100
0010
1000
,
0010
0000
0010
0100
2020
3030
0010
0100
1010
0000
0010
0000
1010
0100
0010
0000
,
0110
0000
0010
0100
0011
0000
0010
1000
0101
0000
1010
0100
0010
0000
0011
1000
,
0100
0000
0110
0000
1010
0001
0010
0000
0011
0100
0010
0000
1010
0100
0010
0100
,
2020
3030
0010
0000
0010
0000
0010
0000
2020
3030
0010
0000
0010
0000
0010
0000
,
0022
0033
0010
0000
0010
0000
0010
0000
1010
0000
0110
0000
0011
0100
0010
0000
,
0110
0000
1010
0000
1010
0100
0010
0000
1010
0000
0010
0000
0010
0000
0110
0000
,
0010
0000
0010
0000
1010
0001
0010
0000
0011
0100
0010
0100
1010
0000
0010
0000
,
1010
0001
0010
0000
0110
0000
1010
0100
0011
0000
0010
0000
2020
3130
0010
0000
,
1010
0000
0010
0000
1010
0100
0010
0000
1010
0000
0010
0000
0010
0000
1010
0000
,
0010
0000
0010
0000
1010
0100
0010
0000
1010
0100
0010
1000
0011
0000
1010
0100
,
0010
0000
1010
0100
0010
0000
1010
0100
0022
0033
1010
0100
0010
0100
0011
0000
,
0010
0000
0010
0000
0011
1000
0001
0000
1010
0000
0010
0000
0010
0000
1010
0000
,
0010
0000
0010
0000
1010
0100
0010
0000
1010
0001
0010
1000
0110
0000
0011
0000
,
1010
0100
0010
0000
0110
0000
0110
0001
0010
0000
0010
0000
2020
3130
0010
0000
,
0010
0000
0010
0000
0010
1000
0010
0000
0110
0000
0010
0000
0010
0000
1010
0000
,
0010
0000
0010
0000
0011
0100
0010
0000
0101
1000
0110
0001
1010
0000
0010
0100
,
0010
0000
0010
0100
0011
0000
0010
1000
0220
0330
0010
0100
1010
0000
0010
0100
,
1010
0000
0110
0000
1010
0100
0010
0000
0110
0000
0010
0100
1010
0000
1010
0100
,
0010
0000
0010
1000
0110
0000
1010
0100
0010
0000
0010
0000
1010
0001
0110
0000
,
1010
0100
0011
0000
0010
1000
0110
0001
1010
0000
0010
0100
2020
3030
0010
0100
,
1010
0000
0010
0000
1010
0100
0010
0000
1010
0000
0010
0000
0010
0000
0110
0001
,
0010
0000
1010
0100
0010
0000
0110
0001
0010
0000
0010
0000
1010
0100
0010
0000
,
1010
0000
0010
0000
0011
1000
0010
0100
2020
3030
0010
0001
1010
0000
0010
0100
,
1010
0000
0010
0000
0011
0100
0001
0000
0010
0000
0011
0100
0010
0000
0110
1000
,
0010
0000
0010
0000
0010
0000
0110
1000
0010
0000
1010
0000
1010
0001
0010
0000
,
0011
0100
0010
0000
0010
0000
1010
0100
0010
0000
1010
0100
0010
0000
0110
1000
,
0010
0000
1010
0000
0110
0001
0010
0000
0010
0000
0011
0100
0010
0000
1010
0100
,
0010
0000
1010
0000
1010
0100
0010
1000
0110
0000
1010
0000
0011
1000
0010
0000
,
0011
0100
0010
0000
1010
0000
0011
0100
2020
3030
0000
0000
1010
0000
0010
0000
,
1010
0110
0011
0010
0110
0010
0011
0110
,
1010
0010
1010
0010
1010
0110
1010
0010
,
1010
0010
0110
0011
0110
0010
0011
0010
,
0110
0011
1010
0010
0011
0110
1010
0110
,
0011
0010
1010
0110
1010
0110
1010
0010
,
0110
1010
1010
0011
0110
0010
1010
0011
,
1010
0110
1010
0010
1010
0110
0011
0110
,
0011
0010
0110
1010
1010
0011
0110
0010
,
1010
0110
0011
0110
1010
0010
1010
0110
,
0011
0110
1010
0010
0011
0110
1010
0110
,
0011
0000
0000
0000
1010
0000
0110
0000
1010
0000
0110
0000
1001
0000
0000
0010
,
0000
0010
0000
0000
0000
0010
0000
0000
0000
0010
0000
0000
0000
0000
0000
0000
1010
0000
0000
0000
0010
0000
0000
0000
0010
0000
0000
0000
0110
0000
0000
0000
,
0010
0000
0010
0000
0110
0010
0010
0000
0010
0000
1010
0000
0011
0010
0010
0000
,
0110
0010
0010
0000
1010
0000
0011
0010
0010
0010
1010
0010
0110
0000
0110
0000
,
1010
0010
0010
0000
0010
0000
0011
0010
0010
0000
0010
0000
0010
0000
0010
0000
,
1010
0010
0011
0000
1010
0000
0011
0010
1010
0000
0010
0000
0011
0000
1010
0000
,
0110
0010
0010
0000
1010
0000
0110
0000
1010
0000
0110
0010
1010
0000
0110
0010
,
0011
0010
1010
0000
0011
0000
0010
0010
2020
3030
1010
0000
1010
0000
1010
0000
,
0110
0000
0011
0000
1010
0010
0110
0000
0110
0000
1010
0000
1010
0010
1010
0000
,
0110
0000
0110
0000
1010
0010
0110
0010
0011
0010
0010
0010
1010
0000
1010
0000
,
1010
0010
0011
0000
1010
0000
0110
0010
1010
0000
1010
0000
0110
0010
0010
0000
,
0011
0010
0010
0000
0110
0010
0010
0000
1010
0000
0010
0000
0010
0000
0110
0010
,
1010
0000
0110
0000
0110
0010
0010
0010
0011
0000
1010
0000
0011
0000
1010
0010
,
0010
0010
0010
0010
0110
0000
0010
0010
0020
0000
0000
0000
0000
0000
0000
0000
,
0000
0000
0000
0000
,
0000
0000
0000
0030
;

//---------------dance-single - ----------------
#NOTES:
     dance-single:
     :
     Hard:
     12:
     1.000,1.000,1.000,0.000,0.606,689.000,198.000,0.000,0.000,0.000:
0000
0000
0000
0000
,
0000
0000
0000
0000
,
0000
0000
0000
0000
,
0000
0000
0000
0000
,
0000
0000
0000
0000
,
0000
0000
0000
0000
,
0001
0000
0010
0000
1100
0001
0100
0000
0110
0000
0001
0000
1001
0010
0100
0000
,
1100
0000
0010
0000
0001
0000
0110
0000
0001
0000
1000
0000
0011
1000
0100
0000
,
1010
0001
0100
0000
1001
0000
0100
0000
0110
0001
0100
0000
1001
0000
0010
0100
,
0010
0000
0100
0000
1001
0000
0010
0000
1100
0000
0010
0000
1001
0100
0001
0000
,
1100
0000
0001
0000
0100
0000
0011
0000
1000
0000
0100
0000
1001
0100
1000
0000
,
0101
1000
0010
0000
1000
0000
0001
0000
1100
0001
1000
0000
1001
0010
1000
0000
,
0001
0000
0010
0000
1100
0001
0100
0000
0110
0000
0001
0000
1001
0010
0100
0000
,
1100
0000
0010
0000
0001
0000
0110
0000
0001
0000
1000
0000
0011
1000
0100
0000
,
1010
0001
0100
0000
1001
0000
0100
0000
0110
0001
0100
0000
1001
0000
0010
0100
,
0010
0000
0100
0000
1001
0000
0010
0000
1100
0000
0010
0000
1001
0100
0001
0000
,
1100
0000
0001
0000
0100
0000
0011
0000
1000
0000
0100
0000
1001
0100
1000
0000
,
0101
1000
0010
0000
1000
0000
0001
0000
1100
0001
1000
0000
1001
0010
1000
0000
,
1001
0000
1000
0000
0100
0000
1000
0010
1000
0000
0001
0000
0101
0000
0010
0000
,
1001
0000
1000
0100
1000
0000
0010
1000
0010
0000
0100
0000
0001
0000
1000
0100
,
1000
0000
0001
0000
0011
0000
1000
0000
0001
0000
1000
0000
0001
0010
0100
1000
,
0010
0000
0100
0000
0001
0000
1000
0010
1000
0000
0001
0000
0110
0000
1000
0000
,
0010
0000
0100
0000
0001
0000
1000
0100
1000
0000
0001
0100
0001
0000
1000
0100
,
1000
0000
0001
0000
0100
0000
0010
0000
0100
0000
0001
0000
1000
0001
0010
0100
,
1000
0000
0001
0010
0001
0000
1000
0100
0010
0000
0001
0000
0011
0000
1000
0100
,
1000
0000
0001
0100
0001
0000
1000
0100
1000
0000
0001
0000
0010
0000
1000
0001
,
1000
0000
0100
0000
0011
0000
1000
0000
0100
0000
0001
0000
0110
0000
0001
0010
,
0100
0000
0100
1000
0010
0000
0010
0001
0100
0000
0010
0000
1001
0000
1000
0100
,
0001
0000
0001
0100
1000
0000
1000
0010
0001
0000
0001
0010
0100
0000
0100
0010
,
0001
0000
0001
0010
1000
0000
1000
0100
0001
0000
0100
0000
1000
0100
0010
0000
,
1001
0001
1000
0100
0010
1000
0001
0100
,
0010
0000
0001
0000
0100
0000
0010
0000
1000
0000
0100
0000
0011
1000
0010
0000
,
0110
0000
1000
0000
1001
0100
0010
0000
0011
0000
0100
0000
1000
0000
0110
0000
,
1000
0000
0001
0000
1100
0001
0010
0000
0101
1000
0010
0000
1001
0000
0010
0000
,
0110
1000
0010
0000
1001
0000
0100
0010
0100
0000
0010
0000
1001
0000
0100
0000
,
0011
0000
0100
0000
1001
0010
1000
0000
0011
0000
1000
0000
0010
0000
1100
0000
,
0001
0000
0010
0000
1001
0010
0001
0000
1010
0001
0100
0000
0001
0000
1000
0000
,
0011
1000
0001
0000
1001
0100
0001
0000
1000
0000
0100
0000
0011
1000
0010
0000
,
0110
0000
1000
0000
1001
0100
0010
0000
0011
0000
0100
0000
1000
0000
0110
0000
,
1000
0000
0001
0000
1100
0001
0010
0000
0101
1000
0010
0000
1001
0000
0010
0000
,
0110
1000
0010
0000
1001
0000
0100
0010
0100
0000
0010
0000
1001
0000
0100
0000
,
0011
0000
0100
0000
1001
0010
1000
0000
0011
0000
1000
0000
0010
0000
1100
0000
,
0001
0000
0010
0000
1001
0010
0001
0000
1010
0001
0100
0000
0001
0000
1000
0000
,
0011
1000
0001
0000
1001
0100
0001
0000
0010
0000
1000
0000
0101
0010
0001
0000
,
1001
0000
0010
0000
0110
1000
0001
0000
0101
0000
1000
0000
0010
0000
1001
0000
,
0010
0000
0100
0000
1010
0100
0001
0000
1100
0010
0001
0000
0110
0000
0001
0000
,
1001
0010
0001
0000
0110
0000
1000
0001
1000
0000
0001
0000
0110
0000
1000
0000
,
0101
0000
1000
0000
0110
0001
0010
0000
0101
0000
0010
0000
0001
0000
1010
0000
,
0100
0000
0001
0000
0110
0001
0100
0000
0011
0100
1000
0000
0100
0000
0010
0000
,
0101
0010
0100
0000
0110
1000
0100
0000
0010
0000
1000
0000
0101
0010
0001
0000
,
1001
0000
0010
0000
0110
1000
0001
0000
0101
0000
1000
0000
0010
0000
1001
0000
,
0010
0000
0100
0000
1010
0100
0001
0000
1100
0010
0001
0000
0110
0000
0001
0000
,
1001
0010
0001
0000
0110
0000
1000
0001
1000
0000
0001
0000
0110
0000
1000
0000
,
0101
0000
1000
0000
0110
0001
0010
0000
0101
0000
0010
0000
0001
0000
1010
0000
,
0100
0000
0001
0000
0110
0001
0100
0000
0011
0100
1000
0000
0100
0000
0010
0000
,
0101
0010
0100
0000
0110
1000
0100
0000
1001
0000
0000
0000
1000
0000
0100
0000
,
0010
0000
0010
0000
0010
0100
1000
0001
,
0010
0000
0010
0001
0100
0010
1000
0000
,
1000
0010
0100
0001
1000
0000
1000
0100
,
0001
0100
1000
0000
1000
0010
0001
0010
,
1000
0000
1000
0001
0100
1000
0100
0000
,
0100
0001
0010
0100
1000
0000
1000
0010
,
0100
0001
1000
0000
1000
0100
0010
0001
,
0010
0000
0010
0100
1000
0001
1000
0000
,
1000
0001
0100
1000
0100
0000
0100
0001
,
0010
1000
0010
0000
0010
0001
0100
0010
,
1000
0000
0000
0000
1000
0000
0010
0000
0100
0000
0001
0000
1000
0000
0000
1000
,
0000
1000
0000
0000
0000
0100
0000
0000
0000
0010
0000
0000
0000
0000
0000
0000
1001
0000
0000
0000
0011
0000
0000
0000
1100
0000
0001
0000
0100
0000
0000
0000
,
0110
0000
1100
0000
1001
0010
0100
0000
1100
0000
1010
0000
1001
0000
0110
0000
,
0101
0000
1010
0000
0011
1000
0100
0000
1010
0001
0100
0000
1001
0000
0101
0000
,
0110
0001
0100
0000
1001
0000
0010
0100
0010
0000
0101
0000
1001
0000
0011
0000
,
1100
0000
1010
0000
1001
0100
0001
0000
1100
0000
1001
0000
0110
0000
0011
0000
,
1001
0000
0110
0000
0011
0100
1000
0000
0101
1000
0010
0000
1100
0000
0011
0000
,
1100
0001
1000
0000
1010
0100
0001
0000
0011
0000
1100
0000
0011
1000
0010
0000
,
0110
0000
1100
0000
1001
0100
0010
0000
0011
0000
0101
0000
1001
0000
0110
0000
,
1010
0000
1001
0000
1100
0001
0010
0000
0101
1000
0010
0000
1001
0000
0011
0000
,
0110
1000
0010
0000
1001
0000
0100
0010
0100
0000
1010
0000
1001
0000
1100
0000
,
0011
0000
0110
0000
1001
0010
1000
0000
0011
0000
1001
0000
0011
0000
1100
0000
,
0011
0000
0110
0000
1001
0010
0001
0000
1010
0001
0100
0000
1001
0000
1100
0000
,
0011
1000
0001
0000
1001
0100
0001
0000
1001
0000
0000
0000
0000
0000
0000
0000
;

//---------------dance-solo - Copied from Copied f----------------
#NOTES:
     dance-solo:
     Copied from Copied f:
     Medium:
     15:
     1.000,1.000,1.000,0.100,0.341,654.000,547.000,10.000,0.000,99.000:
000000
000000
000000
000000
,
000000
000000
000000
000000
,
000000
000000
000000
000000
,
000000
000000
000000
222222
,
000000
000000
000000
000000
,
000000
000000
000000
000000
000000
000000
000000
000000
333333
000000
000000
000000
000011
110000
000011
000000
,
200011
300000
000000
000000
010011
000000
000000
000000
001011
000000
010000
000000
001011
000000
000000
000000
100011
000000
000000
000000
000111
000000
000000
000000
010011
000000
100000
000000
001011
000000
000000
000000
,
110011
000000
001011
000000
010011
000000
101011
000000
010011
000000
001011
000000
010011
001000
000111
000000
,
001011
100000
001011
000100
011011
000000
100011
000000
000111
010000
001011
000000
110011
000000
110011
001100
,
110011
000000
001011
000000
010011
001000
010011
000000
100011
000000
001011
000000
000111
001000
010011
000000
,
100111
000000
010011
000000
001011
000000
100111
000000
010011
000000
001011
000000
101011
010000
001011
000000
,
010011
001000
010011
001000
000111
000000
100011
000000
001011
010000
001011
000000
010011
101100
010011
000000
,
100011
000000
010011
000000
001011
010000
001011
000000
100011
000000
001011
000000
000111
001000
010011
000000
,
100111
000000
010011
000000
001011
000000
100111
000000
001011
000000
010011
000000
100111
010000
001011
000000
,
000111
001000
010011
100000
010011
000000
010011
000000
010011
001000
000111
000000
001111
000000
000111
111000
,
000111
000000
010011
000000
001111
010000
100011
000000
010011
000000
001011
000000
010011
000000
000111
001000
,
010111
000000
001011
000000
010011
000000
100111
000000
010011
000000
001011
000000
010111
001000
010011
000000
,
000111
001000
010111
101000
010111
000000
100011
010000
001011
000000
001011
010000
100011
000000
001011
010000
,
000011
000011
000011
000011
000011
000011
000011
000011
,
000011
000011
000011
000011
000011
000011
000011
000011
,
000011
000011
000011
000011
000011
000011
000011
000011
,
000011
000011
000011
000011
000011
000011
000011
000011
,
000011
000011
000011
000011
000011
000011
000011
000011
,
000011
000011
000011
000011
000011
000011
000011
000011
,
000011
000011
000011
000011
000011
000011
000011
000011
,
000011
000011
000011
000011
000011
000011
000011
000011
,
000011
000011
000011
000011
000011
000011
000011
000011
,
000011
000011
000011
000011
000011
000011
000011
000011
,
000011
000011
000011
000011
000011
000011
000011
000011
,
000011
000011
000011
000011
000011
000011
000011
000011
,
000011
000011
000011
000011
000011
000011
000011
000011
,
000011
000011
000011
000011
000011
000011
000011
000011
,
000011
000011
000011
000011
000011
000011
000011
000011
,
000011
000011
000011
000011
000011
000011
000011
000011
,
000011
000011
000011
000011
000011
000011
000011
000011
,
000011
000011
000011
000011
000011
000011
000011
000011
,
000011
000011
000011
000011
000011
000011
000011
000011
,
000011
000011
000011
000011
000011
000011
000011
000011
,
000011
000011
000011
000011
000011
000011
000011
000011
,
000011
000011
000011
000011
000011
000011
000011
000011
,
000011
000011
000011
000011
000011
000011
000011
000011
,
000011
000011
000011
000011
000011
000011
000011
000011
,
000011
000011
000011
000011
000011
000011
000011
000011
,
000011
000011
000011
000011
000011
000011
000011
000011
,
000011
000011
000011
000011
000011
000011
000011
000011
,
000011
000011
000011
000011
000011
000011
000011
000011
,
000011
000011
000011
000011
000011
000011
000011
000011
,
000011
000011
000011
000011
000011
000011
000011
000011
,
000011
000011
000011
000011
000011
000011
000011
000011
,
000011
000000
000011
000000
000011
000000
000011
000000
000011
000000
000011
000100
000011
000000
000011
000000
,
000011
000011
000011
000011
000011
000011
000011
000011
,
000011
000011
000011
000011
000011
000011
000011
000011
,
000011
000011
000011
000011
000011
000011
000011
000011
,
000011
000011
000011
000011
000011
000011
000011
000011
,
000011
000011
000011
000011
000011
000011
000011
000011
,
000011
000011
000011
000011
000011
000011
000011
000011
,
000011
000011
000011
000011
000011
000011
001100
011000
,
101000
001000
101000
001000
101000
011000
101000
001000
,
101000
001000
011000
001100
011000
001000
001100
001000
,
011000
001100
101000
001000
001100
011000
101000
011000
,
001100
001000
101000
011000
101000
011000
101000
001000
,
011000
101000
101000
001100
011000
001000
101000
001100
,
101000
011000
101000
001000
101000
011000
001100
011000
,
001100
001000
011000
101000
101000
001100
011000
001000
,
101000
011000
001100
011000
101000
001000
101000
011000
,
001100
011000
101000
001000
001100
011000
101000
011000
,
001100
000000
000000
000000
101000
000000
011000
000000
101000
000000
011000
000000
100100
000000
000000
001000
,
000000
001000
000000
000000
000000
001000
000000
000000
000000
001000
000000
000000
000000
000000
000000
000000
101000
000000
000000
000000
001000
000000
000000
000000
001000
000000
000000
000000
011000
000000
000000
000000
,
001000
000000
001000
000000
011000
001000
001000
000000
001000
000000
101000
000000
001100
001000
001000
000000
,
011000
001000
001000
000000
101000
000000
001100
001000
001000
001000
101000
001000
011000
000000
011000
000000
,
101000
001000
001000
000000
001000
000000
001100
001000
001000
000000
001000
000000
001000
000000
001000
000000
,
101000
001000
001100
000000
101000
000000
001100
001000
101000
000000
001000
000000
001100
000000
101000
000000
,
011000
001000
001000
000000
101000
000000
011000
000000
101000
000000
011000
001000
101000
000000
011000
001000
,
001100
001000
101000
000000
001100
000000
001000
001000
202000
303000
101000
000000
101000
000000
101000
000000
,
011000
000000
001100
000000
101000
001000
011000
000000
011000
000000
101000
000000
101000
001000
101000
000000
,
011000
000000
011000
000000
101000
001000
011000
001000
001100
001000
001000
001000
101000
000000
101000
000000
,
101000
001000
001100
000000
101000
000000
011000
001000
101000
000000
101000
000000
011000
001000
001000
000000
,
001100
001000
001000
000000
011000
001000
001000
000000
101000
000000
001000
000000
001000
000000
011000
001000
,
101000
000000
011000
000000
011000
001000
001000
001000
001100
000000
101000
000000
001100
000000
101000
001000
,
001000
001000
001000
001000
011000
000000
001000
001000
002000
000000
000000
000000
000000
000000
000000
000000
,
000000
000000
000000
000000
,
000000
000000
000000
003000
;
